вторник, 12 октомври 2010 г.

Exit Through the Gift Shop (2010) Xvid - филм за Banksy


Блаогодаря на virha, че в коментар към предния пост за Banksy ми даде линка към последния филм за него:


Exit Through the Gift Shop (2010) Xvid



The story of how an eccentric French shop keeper and amateur film maker attempted to locate and befriend Banksy, only to have the artist turn the camera back on its owner with spectacular results. Billed as 'the world's first street art disaster movie' the film contains exclusive footage of Banksy, Shephard Fairey, Invader and many of the world's most infamous graffiti artists at work.

He is Britain's newest national treasure: but he presumably won't be accepting a TV viewers' award from Ant and Dec any time soon, or making libertarian interventions in the smoking debate, or writing an annual Christmas Diary for the London Review of Books or posing alongside his mum with his CBE outside Buckingham Palace in his grey topper and chimp mask. Perhaps his mum would have to wear a chimp mask as well. Street artist, situationist and public-space japester Banksy is famed for his snogging coppers, simpering apes and for debunking Israel's new West Bank barrier with graffiti. Now he takes his career of radical cheek into the cinema with a wacky new "documentary", being shown this week in the director's own pop-up cinema in an underpass in London's Waterloo before moving on to more conventional locations.

Cast :
Banksy ... Himself
Shepard Fairey ... Himself
Thierry Guetta ... Himself
Rhys Ifans ... (Narrator) Himself
Space Invader ... Himself
Joshua Levine ... Himself



File info :

Video

Format : MPEG-4 Visual
Format profile : Advanced Simple@L5
Format settings, BVOP : Yes
Format settings, QPel : No
Format settings, GMC : No warppoints
Format settings, Matrix : Default (H.263)
Muxing mode : Packed bitstream
Codec ID : XVID
Codec ID/Hint : XviD
Duration : 1h 26mn
Bit rate : 954 Kbps
Width : 640 pixels
Height : 368 pixels
Display aspect ratio : 16/9
Frame rate : 25.000 fps
Resolution : 24 bits
Colorimetry : 4:2:0
Scan type : Progressive
Bits/(Pixel*Frame) : 0.162
Stream size : 587 MiB (84%)
Writing library : XviD 1.2.1 (UTC 2008-12-04)

Audio
ID : 1
Format : MPEG Audio
Format version : Version 1
Format profile : Layer 3
Codec ID : 55
Codec ID/Hint : MP3
Duration : 1h 26mn
Bit rate mode : Variable
Bit rate : 164 Kbps
Nominal bit rate : 160 Kbps
Channel(s) : 2 channels
Sampling rate : 48.0 KHz
Resolution : 16 bits
Stream size : 101 MiB (15%)
Alignment : Aligned on interleaves
Interleave, duration : 24 ms (0.60 video frame)
Interleave, preload duration : 112 ms
Writing library : LAME3.90.
Encoding settings : -m j -V 4 -q 2 -lowpass 18 --abr 160

http://www.imdb.com/title/tt1587707/

Enjoy,seed and say thanks.


Click here to download the torrent

Описание на руски:

Выход через сувенирную лавку / Exit Through the Gift Shop
picСтрана: США, Великобритания
Жанр: комедия, документальный, граффити, Арт-хаус
Год выпуска: 2010
Продолжительность: 1:26:05
Перевод: Профессиональный (многоголосый закадровый)
Cубтитры: нет
Режиссер: Роберт Бэнкси/Robert Banksy
В ролях: Бэнкси , Шепард Фэйри , Тьерри Гетта , Рис Иванс

Описание
: Выход через сувенирную лавку – хороший способ для музея немного подзаработать. Вдохновленный произведениями искусства, которыми любовался в залах галереи, посетитель обнаруживает их штампованные репродукции на футболках, кружках, магнитах на холодильник и с удовольствием запасается такими «высококультурными» сувенирами. А что, если бы через сувенирную лавку осуществлялся бы не выход, а вход? Многие ли посетители вообще добрались бы до выставочных залов? Может быть, им вполне хватило бы сувениров? Вообще, где кончается искусство и начинается китч? И как отличить настоящий шедевр от подделки? Ведь, говорят, сам Пикассо в свое время не смог узнать свою картину среди множества копий…
Герой фильма по имени Тьерри – француз, живущий в Лос-Анджелесе – на этом и зарабатывает деньги. Покупая оптом недорогую спортивную одежду, он продает ее втридорога как эксклюзивные изделия авангардных модельеров. Но однажды он попадает в мир по-настоящему авангардного искусства: его знакомят с людьми, рисующими уличные граффити. И этот мир очаровывает Тьерри, а встреча с легендарным Бэнкси переворачивает его жизнь.
Бэнкси – один из самых известных граффитистов – никто не видел его в лицо. Его собственный фильм – не исключение: свою внешность и голос Бэнкси здесь искажает до неузнаваемости. Такая анонимность для тех, кто рисует граффити, – залог выживания: ведь за рисунки на общественных зданиях могут и арестовать. Это уникальное современное явление, балансирующее на грани легальности, некоторыми признаваемое как искусство, другими отвергаемое как вандализм, – прекрасный повод не только вдоволь посмеяться (а на розыгрыши Бэнкси большой мастер), но и поговорить о поддельном и подлинном, о культуре и ширпотребе, о кризисе классических жанров и о том, где же выход. Через сувенирную лавку или этажом выше.

Качество видео
: HDRip
Формат видео: AVI
Видео: vid 720x400 23.98fps 2136 kbps
Аудио: MPEG Audio Layer 3 44100Hz stereo 128kbps

1 коментар:

virha каза...

режиссер - роберт бэнкси .)